osu file format v14

[General]
AudioFilename: After School Days.mp3
AudioLeadIn: 1500
PreviewTime: 66935
Countdown: 0
SampleSet: Normal
StackLeniency: 0.7
Mode: 1
LetterboxInBreaks: 0
WidescreenStoryboard: 0

[Editor]
DistanceSpacing: 1.7
BeatDivisor: 2
GridSize: 4
TimelineZoom: 1

[Metadata]
Title:After School Days
TitleUnicode:アフタースクールデイズ
Artist:Nanamori-chu * Goraku-bu
ArtistUnicode:七森中☆ごらく部
Creator:-TheHateD-
Version:Kantan
Source:ゆるゆり なちゅやちゅみ!
Tags:Yuru Yuri Nachuyachumi OVA ED 赤座あかり Akaza Akari 船見結衣 Funami Yui 吉川ちなつ Yoshikawa Chinatsu 歳納京子 Toshinou Kyouko 三上枝織 Mikami Shiori 津田美波 Tsuda Minami 大久保瑠美 Okubo Rumi 大坪由佳 Otsubo Yuka agu
BeatmapID:658048
BeatmapSetID:292370

[Difficulty]
HPDrainRate:4
CircleSize:2
OverallDifficulty:3
ApproachRate:10
SliderMultiplier:1.4
SliderTickRate:1

[Events]
//Background and Video events
0,0,"12_0103yuru_yuri0082-1.jpg",0,115
//Break Periods
//Storyboard Layer 0 (Background)
//Storyboard Layer 1 (Fail)
//Storyboard Layer 2 (Pass)
//Storyboard Layer 3 (Foreground)
//Storyboard Sound Samples

[TimingPoints]
531,324.324324324324,4,1,0,100,1,0
67990,-100,4,1,0,100,0,1
100260,-100,4,1,0,100,0,0

[HitObjects]
300,264,531,5,4,0:0:0:0:
300,264,1828,1,0,0:0:0:0:
300,264,3125,1,4,0:0:0:0:
300,264,4422,1,0,0:0:0:0:
300,264,5720,1,4,0:0:0:0:
300,264,7017,1,4,0:0:0:0:
300,264,8314,1,4,0:0:0:0:
300,264,9612,5,8,0:0:0:0:
300,264,10260,1,8,0:0:0:0:
300,264,10585,1,8,0:0:0:0:
300,264,10909,1,4,0:0:0:0:
300,264,11558,1,0,0:0:0:0:
300,264,12206,1,8,0:0:0:0:
300,264,13503,1,0,0:0:0:0:
300,264,14152,1,8,0:0:0:0:
300,264,14800,1,0,0:0:0:0:
208,128,16098,1,0,0:0:0:0:
208,128,16747,1,0,0:0:0:0:
208,128,17395,1,8,0:0:0:0:
208,128,18693,1,8,0:0:0:0:
208,128,19341,1,0,0:0:0:0:
208,128,19990,1,8,0:0:0:0:
208,128,20314,1,8,0:0:0:0:
208,128,20639,1,8,0:0:0:0:
208,128,21287,1,0,0:0:0:0:
208,128,21936,1,0,0:0:0:0:
208,128,22585,1,8,0:0:0:0:
120,16,23882,1,0,0:0:0:0:
208,128,24530,1,0,0:0:0:0:
208,128,25179,1,8,0:0:0:0:
208,128,26476,1,0,0:0:0:0:
208,128,27125,1,0,0:0:0:0:
208,128,27774,1,8,0:0:0:0:
208,128,29071,1,0,0:0:0:0:
208,128,30368,1,8,0:0:0:0:
208,128,31666,1,4,0:0:0:0:
208,128,32314,1,8,0:0:0:0:
208,128,32963,1,0,0:0:0:0:
208,128,34260,1,0,0:0:0:0:
208,128,34909,1,8,0:0:0:0:
208,128,35558,1,0,0:0:0:0:
208,128,35882,1,0,0:0:0:0:
208,128,36206,1,8,0:0:0:0:
208,128,36855,1,0,0:0:0:0:
208,128,37503,1,8,0:0:0:0:
208,128,38152,1,0,0:0:0:0:
208,128,39449,1,0,0:0:0:0:
208,128,40098,1,8,0:0:0:0:
208,128,40747,1,8,0:0:0:0:
208,128,41071,1,0,0:0:0:0:
208,128,41395,1,8,0:0:0:0:
208,128,42044,1,4,0:0:0:0:
208,128,43341,1,0,0:0:0:0:
208,128,44639,1,0,0:0:0:0:
208,128,45936,1,0,0:0:0:0:
208,128,47233,1,12,0:0:0:0:
208,128,48530,1,0,0:0:0:0:
208,128,49828,1,8,0:0:0:0:
208,128,50476,1,8,0:0:0:0:
208,128,51125,1,8,0:0:0:0:
208,128,52422,1,4,0:0:0:0:
208,128,53071,1,8,0:0:0:0:
208,128,53720,1,0,0:0:0:0:
208,128,55017,1,0,0:0:0:0:
208,128,55666,1,8,0:0:0:0:
208,128,56314,1,0,0:0:0:0:
300,264,57612,1,4,0:0:0:0:
208,128,58909,1,4,0:0:0:0:
208,128,60206,1,4,0:0:0:0:
208,128,60855,1,8,0:0:0:0:
208,128,61503,1,8,0:0:0:0:
208,128,62152,1,8,0:0:0:0:
208,128,62476,1,8,0:0:0:0:
300,264,62801,1,4,0:0:0:0:
300,264,63449,1,4,0:0:0:0:
208,128,64098,1,4,0:0:0:0:
208,128,65395,1,8,0:0:0:0:
208,128,65720,1,8,0:0:0:0:
208,128,66044,1,8,0:0:0:0:
208,128,66693,1,12,0:0:0:0:
208,128,67990,5,4,0:0:0:0:
208,128,68639,1,8,0:0:0:0:
208,128,69287,1,0,0:0:0:0:
208,128,69612,1,0,0:0:0:0:
208,128,69936,1,8,0:0:0:0:
208,128,70585,1,8,0:0:0:0:
208,128,71233,5,8,0:0:0:0:
208,128,71882,1,0,0:0:0:0:
208,128,72206,1,0,0:0:0:0:
208,128,72530,1,8,0:0:0:0:
208,128,73179,1,4,0:0:0:0:
208,128,73828,1,8,0:0:0:0:
208,128,74476,1,8,0:0:0:0:
208,128,74801,1,8,0:0:0:0:
208,128,75125,1,8,0:0:0:0:
208,128,75774,1,0,0:0:0:0:
208,128,77071,1,0,0:0:0:0:
208,128,77720,1,8,0:0:0:0:
208,128,78368,1,4,0:0:0:0:
208,128,79017,1,8,0:0:0:0:
208,128,79341,1,0,0:0:0:0:
208,128,79666,1,8,0:0:0:0:
208,128,80314,1,8,0:0:0:0:
208,128,80963,1,0,0:0:0:0:
208,128,82260,1,8,0:0:0:0:
208,128,82909,1,8,0:0:0:0:
208,128,83558,1,4,0:0:0:0:
208,128,84206,1,8,0:0:0:0:
208,128,84530,1,8,0:0:0:0:
208,128,84855,1,0,0:0:0:0:
208,128,85503,1,8,0:0:0:0:
208,128,86152,1,0,0:0:0:0:
208,128,87125,1,0,0:0:0:0:
208,128,87449,1,8,0:0:0:0:
208,128,88098,1,8,0:0:0:0:
208,128,88747,1,8,0:0:0:0:
208,128,89071,1,8,0:0:0:0:
208,128,89395,1,8,0:0:0:0:
208,128,90044,1,8,0:0:0:0:
208,128,91341,5,0,0:0:0:0:
208,128,91665,1,0,0:0:0:0:
208,128,91990,1,0,0:0:0:0:
208,128,92639,1,0,0:0:0:0:
208,128,93936,1,8,0:0:0:0:
208,128,94585,1,8,0:0:0:0:
208,128,95233,1,0,0:0:0:0:
208,128,95882,1,0,0:0:0:0:
208,128,96693,1,8,0:0:0:0:
120,16,97179,1,8,0:0:0:0:
120,16,97990,1,8,0:0:0:0:
208,128,98476,1,8,0:0:0:0:
208,128,99287,1,8,0:0:0:0:
120,16,99774,1,8,0:0:0:0:
208,128,100260,1,4,0:0:0:0:
